First unread post1 post Page 1 of 1
Unread postby tmp2020 » 12 Jul 2018 01:58
When I enable "Auto rotate files based on metadata" option under "Playback", The video file below post (1920x1080) output size is 1080x1920, So I must rotate 90 degrees when play it. Other video's output size is correct.

It seems that there are some bug.

Below is the video file info has the problem.




General
Unique ID : 224624313743840427283127361748416584278 (0xA8FD11B7980565D783B7E2C01CC3DA56)
Complete name : F:\Download\Music\谭晶-尖耳朵的阿凡达妹妹\【蒙面唱将猜猜猜】07.谭晶.苍狼大地(1080P+FLAC).mkv
Format : Matroska
Format version : Version 4 / Version 2
File size : 265 MiB
Duration : 4 min 52 s
Overall bit rate mode : Variable
Overall bit rate : 7 588 kb/s
Movie name : 苍狼大地
Track name/Position : 7
Track name/Total : 7
Encoded date : UTC 2017-03-13 08:54:30
Writing application : mkvmerge v9.7.1 ('Pandemonium') 64bit
Writing library : libebml v1.3.4 + libmatroska v1.4.5
ARTIST : 谭晶
DATE_RECORDED : 2016

Video
ID : 1
Format : AVC
Format/Info : Advanced Video Codec
Format profile : High@L4
Format settings : CABAC / 4 Ref Frames
Format settings, CABAC : Yes
Format settings, ReFrames : 4 frames
Codec ID : V_MPEG4/ISO/AVC
Duration : 4 min 52 s
Bit rate : 6 621 kb/s
Width : 1 920 pixels
Height : 1 080 pixels
Display aspect ratio : 16:9
Frame rate mode : Constant
Frame rate : 30.000 FPS
Color space : YUV
Chroma subsampling : 4:2:0
Bit depth : 8 bits
Scan type : Progressive
Bits/(Pixel*Frame) : 0.106
Stream size : 231 MiB (87%)
Writing library : x264 core 148 r2638 7599210
Encoding settings : cabac=1 / ref=3 / deblock=1:0:0 / analyse=0x3:0x113 / me=hex / subme=7 / psy=1 / psy_rd=1.00:0.00 / mixed_ref=1 / me_range=16 / chroma_me=1 / trellis=1 / 8x8dct=1 / cqm=0 / deadzone=21,11 / fast_pskip=1 / chroma_qp_offset=-2 / threads=6 / lookahead_threads=1 / sliced_threads=0 / nr=0 / decimate=1 / interlaced=0 / bluray_compat=0 / constrained_intra=0 / bframes=3 / b_pyramid=2 / b_adapt=1 / b_bias=0 / direct=1 / weightb=1 / open_gop=0 / weightp=2 / keyint=300 / keyint_min=30 / scenecut=40 / intra_refresh=0 / rc_lookahead=40 / rc=crf / mbtree=1 / crf=23.0 / qcomp=0.60 / qpmin=0 / qpmax=69 / qpstep=4 / ip_ratio=1.40 / aq=1:1.00
Default : Yes
Forced : No

Audio
ID : 2
Format : FLAC
Format/Info : Free Lossless Audio Codec
Codec ID : A_FLAC
Duration : 4 min 52 s
Bit rate mode : Variable
Bit rate : 965 kb/s
Channel(s) : 2 channels
Channel positions : Front: L R
Sampling rate : 44.1 kHz
Frame rate : 10.770 FPS (4095 SPF)
Bit depth : 16 bits
Stream size : 33.6 MiB (13%)
Writing library : libFLAC 1.2.1 (UTC 2007-09-17)
Default : Yes
Forced : No
First unread post1 post Page 1 of 1

Login

Who is online

Users browsing this forum: No registered users and 2 guests