中文用戶交流區
First unread post2 posts Page 1 of 1
Unread postby halflifewfr » 27 Feb 2019 15:57
旧版本 [1.5.41997] 之前一直使用的版本可以播放,有声音。
现版本[1.7.17508] 播放无声音。

磁力链接: magnet:?xt=urn:btih:639d159107c91be2598d1ea6899d312b71133ea0

文件信息:

Code: Select all
General
Unique ID                      : 228523699653075179225369297363771467506 (0xABEC10492A1AD83EA3B6828463DA26F2)
Complete name                  : F:\Download\唐顿庄园.1-6季.H265.1080P.非凡科技影视小组\SE01\唐顿庄园.H265.1080P.SE01.01.mkv
Format                         : Matroska
Format version                 : Version 4
File size                      : 1.90 GiB
Duration                       : 1 h 8 min
Overall bit rate               : 3 986 kb/s
Movie name                     : cXcY@FRDS
Encoded date                   : UTC 2018-08-12 21:17:02
Writing application            : mkvmerge v18.0.0 ('Apricity') 64-bit
Writing library                : libebml v1.3.5 + libmatroska v1.4.8

Video
ID                             : 1
Format                         : HEVC
Format/Info                    : High Efficiency Video Coding
Format profile                 : Main@L4@Main
Codec ID                       : V_MPEGH/ISO/HEVC
Duration                       : 1 h 8 min
Bit rate                       : 3 600 kb/s
Width                          : 1 920 pixels
Height                         : 1 080 pixels
Display aspect ratio           : 16:9
Frame rate mode                : Constant
Frame rate                     : 23.976 (23976/1000) FPS
Original frame rate            : 23.000 FPS
Color space                    : YUV
Chroma subsampling             : 4:2:0
Bit depth                      : 8 bits
Bits/(Pixel*Frame)             : 0.072
Stream size                    : 1.71 GiB (90%)
Default                        : Yes
Forced                         : No

Audio
ID                             : 2
Format                         : AC-3
Format/Info                    : Audio Coding 3
Commercial name                : Dolby Digital
Codec ID                       : A_AC3
Duration                       : 1 h 8 min
Bit rate mode                  : Constant
Bit rate                       : 384 kb/s
Channel(s)                     : 2 channels
Channel layout                 : L R
Sampling rate                  : 48.0 kHz
Frame rate                     : 31.250 FPS (1536 SPF)
Bit depth                      : 16 bits
Compression mode               : Lossy
Stream size                    : 187 MiB (10%)
Title                          : Eng-DD2.0£cXcY
Language                       : English
Service kind                   : Complete Main
Default                        : Yes
Forced                         : No

Unread postby halflifewfr » 02 Mar 2019 15:34
安装了OpenCodec ,AC3音频使用内置(推荐);滤镜取消了 [使用内置pass through音频解码器],然后声音正常播放。

希望默认配置能正常播放。
First unread post2 posts Page 1 of 1

Login

Who is online

Users browsing this forum: No registered users and 1 guest

cron