First unread post5 posts Page 1 of 1
Unread postby redcartell » 11 Jul 2020 01:16
i have one video mp4 with this requisite:

Code: Select all
GENERAL INFO
Format : MPEG-4
Format profile : Base Media
Codec ID : isom (isom/iso2/mp41)
File size : 70.7 MiB
Duration : 20 min 26 s
Overall bit rate : 484 kb/s
Writing application : Lavf58.23.102


Code: Select all
VIDEO
ID : 1
Format : HEVC
Format/Info : High Efficiency Video Coding
Format profile : Main@L2.1@Main
Codec ID : hev1
Codec ID/Info : High Efficiency Video Coding
Duration : 20 min 26 s
Bit rate : 405 kb/s
Width : 320 pixels
Height : 568 pixels
Display aspect ratio : 0.563
Frame rate mode : Constant
Frame rate : 24.000 FPS
Color space : YUV
Chroma subsampling : 4:2:0
Bit depth : 8 bits
Scan type : Progressive
Bits/(Pixel*Frame) : 0.093
Stream size : 59.2 MiB (84%)
Writing library : x265 2.9+9-f74003e88622:[Windows][GCC 8.2.1][64 bit] 8bit+10bit
Encoding settings : cpuid=1111039 / frame-threads=3 / numa-pools=12 / wpp / no-pmode / no-pme / no-psnr / no-ssim / log-level=2 / input-csp=1 / input-res=320x568 / interlace=0 / total-frames=0 / level-idc=0 / high-tier=1 / uhd-bd=0 / ref=3 / no-allow-non-conformance / no-repeat-headers / annexb / no-aud / no-hrd / info / hash=0 / no-temporal-layers / open-gop / min-keyint=24 / keyint=250 / gop-lookahead=0 / bframes=4 / b-adapt=2 / b-pyramid / bframe-bias=0 / rc-lookahead=20 / lookahead-slices=0 / scenecut=40 / radl=0 / no-intra-refresh / ctu=64 / min-cu-size=8 / no-rect / no-amp / max-tu-size=32 / tu-inter-depth=1 / tu-intra-depth=1 / limit-tu=0 / rdoq-level=0 / dynamic-rd=0.00 / no-ssim-rd / signhide / no-tskip / nr-intra=0 / nr-inter=0 / no-constrained-intra / strong-intra-smoothing / max-merge=2 / limit-refs=3 / no-limit-modes / me=1 / subme=2 / merange=57 / temporal-mvp / weightp / no-weightb / no-analyze-src-pics / deblock=0:0 / sao / no-sao-non-deblock / rd=3 / no-early-skip / rskip / no-fast-intra / no-tskip-fast / no-cu-lossless / no-b-intra / no-splitrd-skip / rdpenalty=0 / psy-rd=2.00 / psy-rdoq=0.00 / no-rd-refine / no-lossless / cbqpoffs=0 / crqpoffs=0 / rc=crf / crf=21.0 / qcomp=0.60 / qpstep=4 / stats-write=0 / stats-read=0 / ipratio=1.40 / pbratio=1.30 / aq-mode=1 / aq-strength=1.00 / cutree / zone-count=0 / no-strict-cbr / qg-size=32 / no-rc-grain / qpmax=69 / qpmin=0 / no-const-vbv / sar=0 / overscan=0 / videoformat=5 / range=0 / colorprim=2 / transfer=2 / colormatrix=2 / chromaloc=0 / display-window=0 / max-cll=0,0 / min-luma=0 / max-luma=255 / log2-max-poc-lsb=8 / vui-timing-info / vui-hrd-info / slices=1 / no-opt-qp-pps / no-opt-ref-list-length-pps / no-multi-pass-opt-rps / scenecut-bias=0.05 / no-opt-cu-delta-qp / no-aq-motion / no-hdr / no-hdr-opt / no-dhdr10-opt / no-idr-recovery-sei / analysis-reuse-level=5 / scale-factor=0 / refine-intra=0 / refine-inter=0 / refine-mv=0 / no-limit-sao / ctu-info=0 / no-lowpass-dct / refine-mv-type=0 / copy-pic=1 / max-ausize-factor=1.0 / no-dynamic-refine / no-single-sei
Codec configuration box : hvcC 


Code: Select all
AUDIO
ID : 2
Format : AAC LC
Format/Info : Advanced Audio Codec Low Complexity
Codec ID : mp4a-40-2
Duration : 20 min 25 s
Bit rate mode : Constant
Bit rate : 72.0 kb/s
Channel(s) : 1 channel
Channel layout : C
Sampling rate : 44.1 kHz
Frame rate : 43.066 FPS (1024 SPF)
Compression mode : Lossy
Stream size : 10.4 MiB (15%)
Default : Yes
Alternate group : 1

it's unable to play this video with PP. with VLC work fine.
i've try to change video render but without result.... suggestion?
Unread postby Havokdan » 12 Jul 2020 08:58
As far as I know, Potplayer does not come with a Hevc / h265 decoder, some old versions did, but it was taken a long time ago, I don't know why, so you have to install a decoder for this video format.
Unread postby redcartell » 12 Jul 2020 15:36
oh, tanxs for your reply.
so the cause of the non-reproduction is due to the missing h265 codec ... who knows why it is not supplied together with PP since it is now a very popular format and it will be more and more...
ok now i will install h265 codec. thanks again for your reply!
Unread postby Havokdan » 12 Jul 2020 18:54
redcartell wrote:oh, tanxs for your reply.
so the cause of the non-reproduction is due to the missing h265 codec ... who knows why it is not supplied together with PP since it is now a very popular format and it will be more and more...
ok now i will install h265 codec. thanks again for your reply!

Find out now that PotPlayer can play videos, if you installed its internal codecs during installation (the installer asks if you want it or not), just go to "Preferences> Codecs / Filters> Video Decoder> Configure Internal Codecs" and manually select one in the box that refers to h265 / hevc.
Unread postby redcartell » 12 Jul 2020 21:23
solved.
first i've download OpenCodecSetup from here: http://get.daum.net/PotPlayer/Codec/Ope ... etup64.exe

then, install only FFmpeg plugin or better extract with 7zip from OpenCodecSetup64.exe only FFmpeg64.dll and put on PotPlayer\Module\FFmpeg

then open PP go to settings --> Filter Control --> Video Decoder --> HEVC: three dots. on configuration window and under Available Video Decoders, at H265/HEVC, i changed from "Built-in FFmpeg Decoder (Recommended)" to "FFmpeg64.dll" and everything work fine again now!

cheeeers ;)
First unread post5 posts Page 1 of 1

Login

Who is online

Users browsing this forum: No registered users and 6 guests