First unread post2 posts Page 1 of 1
Unread postby yaya_ikuto » 08 Feb 2020 01:57
before the new version of potplayer i was available to play this hevc files in potplayer now with the new version 191211 i cant play it, it gives me a error, now i have to use lav filters
they are the only files that give me a error other hevc files none

this is the info

General
Unique ID : 193921068505437507781776253603764601179 (0x91E3D6DA483170CDB4C1C58C43F5815B)
Complete name : Magic-Kyun! Renaissance - 01 (1280x720 HEVC2 AAC).mkv
Format : Matroska
Format version : Version 4 / Version 2
File size : 279 MiB
Duration : 23 min 42 s
Overall bit rate : 1 645 kb/s
Encoded date : UTC 2016-10-04 06:27:56
Writing application : mkvmerge v9.4.2 ('So High') 64bit
Writing library : libebml v1.3.4 + libmatroska v1.4.5
Attachments : OpenSans-Semibold.ttf

Video
ID : 1
Format : HEVC
Format/Info : High Efficiency Video Coding
Format profile : @L3.1@Main
Codec ID : V_MPEGH/ISO/HEVC
Duration : 23 min 40 s
Bit rate : 1 465 kb/s
Width : 1 280 pixels
Height : 720 pixels
Display aspect ratio : 16:9
Frame rate mode : Constant
Frame rate : 23.976 (24000/1001) FPS
Original frame rate : 23.976 (23976/1000) FPS
Color space : YUV
Chroma subsampling : 4:2:0
Bit depth : 12 bits
Bits/(Pixel*Frame) : 0.066
Stream size : 248 MiB (89%)
Writing library : x265 2.1+9-a2d5144476be3aa6:[Windows][MSVC 1800][64 bit] 12bit: KG7x [x265.ru]
Encoding settings : wpp / ctu=64 / min-cu-size=8 / max-tu-size=32 / tu-intra-depth=1 / tu-inter-depth=1 / me=1 / subme=2 / merange=57 / no-rect / no-amp / max-merge=2 / temporal-mvp / no-early-skip / rskip / rdpenalty=0 / no-tskip / no-tskip-fast / strong-intra-smoothing / no-lossless / no-cu-lossless / no-constrained-intra / no-fast-intra / no-open-gop / no-temporal-layers / interlace=0 / keyint=250 / min-keyint=23 / scenecut=40 / rc-lookahead=20 / lookahead-slices=4 / bframes=4 / bframe-bias=0 / b-adapt=2 / ref=3 / limit-refs=3 / no-limit-modes / weightp / no-weightb / aq-mode=0 / qg-size=64 / aq-strength=1.00 / cbqpoffs=0 / crqpoffs=0 / rd=3 / psy-rd=2.00 / rdoq-level=0 / psy-rdoq=0.00 / log2-max-poc-lsb=8 / no-rd-refine / signhide / deblock=0:0 / sao / no-sao-non-deblock / b-pyramid / no-cutree / no-intra-refresh / rc=crf / crf=20.0 / qcomp=0.60 / qpmin=0 / qpmax=69 / qpstep=4 / ipratio=1.40 / pbratio=1.30
Default : Yes
Forced : No

Audio
ID : 2
Format : AAC
Format/Info : Advanced Audio Codec
Format profile : HE-AAC / LC
Codec ID : A_AAC
Duration : 23 min 42 s
Bit rate : 179 kb/s
Channel(s) : 2 channels
Channel positions : Front: L R
Sampling rate : 44.1 kHz / 22.05 kHz
Frame rate : 21.533 FPS (1024 spf)
Compression mode : Lossy
Stream size : 30.3 MiB (11%)
Language : new
Default : Yes
Forced : No

Text
ID : 3
Format : ASS
Codec ID : S_TEXT/ASS
Codec ID/Info : Advanced Sub Station Alpha
Duration : 23 min 36 s
Bit rate : 123 b/s
Count of elements : 348
Compression mode : Lossless
Stream size : 21.4 KiB (0%)
Language : English
Default : Yes
Forced : No
Unread postby D2NP » 08 Feb 2020 18:10
Always try the latest beta version (now x64 only) before continuing a discussion here.
When you have a problem (Follow steps 1,2,3)
This is NOT official support though. It is my contribution to Potplayer.
First unread post2 posts Page 1 of 1

Login

Who is online

Users browsing this forum: No registered users and 10 guests