1 post Page 1 of 1
Postby deepspirits » 27 Mar 2018 23:41
Hi,

first this is a great audio/video player! Better than everything I have used before!
But there is one thing I cannot fix. I have a cue file and the mp3 file. When I start playing the cue file than there are breaks between each song. It is not playing seamlessly. Are there any settings to fix this.

My cue file looks like this:

FILE "MUSIC.MP3" WAVE
TRACK 01 AUDIO
TITLE "Song 1"
PERFORMER "Artist 1"
INDEX 01 00:00:00
TRACK 02 AUDIO
TITLE "Song 2"
PERFORMER "Artist 2"
INDEX 01 06:58:70
TRACK 03 AUDIO
TITLE "Song 3"
PERFORMER "Artist 3"
INDEX 01 12:13:58
...
TRACK 11 AUDIO
TITLE "Song 11"
PERFORMER "Artist 11"
INDEX 01 52:30:46

Would be great if someone can help out.
Thank you!
1 post Page 1 of 1

Login

Who is online

Users browsing this forum: No registered users and 2 guests